#TITLE:un deux trois;
#SUBTITLE:~Paradox re-edit~;
#ARTIST:SDMS;
#TITLETRANSLIT:;
#SUBTITLETRANSLIT:;
#ARTISTTRANSLIT:;
#CREDIT:;
#BANNER:un deux trois.png;
#BACKGROUND:un deux trois-bg.png;
#LYRICSPATH:un deux trois.lrc;
#CDTITLE:Prdx.PNG;
#MUSIC:un deux trois.mp3;
#OFFSET:-5.384;
#SAMPLESTART:65.340;
#SAMPLELENGTH:12.000;
#SELECTABLE:YES;
#DISPLAYBPM:140.000;
#BPMS:0.000=140.000,84.000=70.000,92.000=140.000;
#STOPS:84.000=3.429
;
#BGCHANGES:;
// cache tags:
#FIRSTBEAT:4.000;
#LASTBEAT:187.000;
#SONGFILENAME:Songs/Chilean Keyboard Megapack 3/(Paradox) Un Deux Trois/un deux trois.sm;
#HASMUSIC:1;
#HASBANNER:1;
#MUSICLENGTH:94.432;
// end cache tags

//---------------dance-single - ----------------
#NOTES:
     dance-single:
     :
     Challenge:
     10:
     0.753,0.842,0.116,0.095,0.858,478.000,11.000,9.000,0.000,1.000:
0000
0000
0000
0000
,
1000
0000
0001
1000
0001
0000
0100
0000
0010
0000
0000
0000
1000
0000
0100
0000
,
1000
0000
0001
1000
0010
0000
0100
0000
0001
0000
0000
0000
0001
0000
0100
0000
,
0001
0000
1000
0100
1000
0000
0100
0000
0010
0000
0000
0000
0001
0000
0100
0000
,
0001
0000
1000
0001
0010
0000
0100
0000
0001
0000
0000
0000
1000
0000
0100
0000
,
1000
0100
1000
0100
1000
0000
0010
0000
0100
0000
0001
0000
1000
0000
0100
0000
,
0001
0010
0001
0010
0001
0000
1000
0000
0001
0000
0100
0000
0010
0000
1000
0000
,
0001
0100
0001
0100
0001
0000
1000
0000
0001
0000
0100
0000
0001
0000
1000
0000
,
0010
0100
0010
0100
0010
0000
1000
0000
0001
0000
0100
0000
0001
0000
0100
0000
,
0001
1000
0001
1000
0001
0000
0100
0000
0001
0000
1000
0000
0010
0000
1000
0000
,
0010
1000
0010
1000
0010
0000
0100
0000
0001
0000
1000
0000
0100
0000
1000
0000
,
0001
0100
0001
0100
0001
0000
1000
0000
0100
0000
1000
0000
0001
0000
0100
0000
,
0001
1000
0001
1000
0001
0000
0100
0000
0010
0000
1000
0000
0001
0000
1000
0000
,
0001
0000
1000
0100
1000
0000
0010
0000
0100
0000
0000
0000
0001
0000
1000
0000
,
0001
1000
0010
1000
0100
0000
0010
0000
0001
0000
0000
0000
1000
0000
0001
0000
,
1000
0001
0100
0001
1000
0000
0010
0000
0100
0000
0000
0000
0001
0000
1000
0000
,
0001
0100
0001
0010
0001
0000
1000
0000
0100
0000
0000
0000
0010
0000
0100
0000
,
1000
0001
0100
0001
1000
0000
0001
0000
0100
0000
0000
0000
0001
0000
1000
0000
,
0001
0100
0010
0100
0001
0000
1000
0000
1000
0000
0000
0000
0001
0000
0100
0000
,
0001
1000
0001
1000
0001
0000
1000
0000
0001
0000
0000
0000
0100
0000
0001
0000
,
0100
0010
0100
0010
0100
0000
1000
0000
0001
0000
0000
0000
0001
0000
1000
0000
,
1001
0002
0000
0000
0020
0000
0003
0000
,
0230
0000
2300
3002
,
1103
0000
0110
0000
,
0101
0000
0110
0000
,
1001
1001
1001
1001
,
0220
0000
0000
0330
,
0001
0000
1000
0100
1000
0000
0001
0000
0100
0000
0001
0000
1000
0000
0001
0000
,
1000
0001
1000
0001
1000
0000
0010
0000
0100
0000
0001
0000
1000
0000
0001
0000
,
0100
0001
0100
0001
0100
0000
0001
0000
1000
0000
0100
0000
1000
0000
0001
0000
,
1000
0100
1000
0100
1000
0000
0001
0000
0100
0000
0001
0000
1000
0000
0001
0000
,
1000
0001
0100
0001
1000
0010
1000
0001
1000
0100
0010
0001
0010
0100
1000
0001
,
1000
0001
1000
0100
0010
0001
0010
0100
1000
0100
1000
0001
0100
0001
1000
0001
,
0100
0001
1000
0010
1000
0100
0010
0001
0010
0100
1000
0001
0100
0001
1000
0100
,
0010
0001
1000
0100
1000
0001
0100
0001
0010
0001
0100
0001
1000
0010
1000
0001
,
1000
0001
0100
0001
0010
0100
1000
0100
0010
0001
0010
0100
1000
0001
0100
0001
,
1000
0010
1000
0100
1000
0001
0100
0001
1000
0100
0010
0001
0010
0100
1000
0001
,
0100
0001
1000
0010
1000
0001
0100
0001
1000
0100
1000
0100
1000
0001
0100
0001
,
1000
0100
0010
0001
0010
0100
1000
0001
0100
0001
1000
0010
1000
0100
0010
0001
,
0010
0100
1000
0001
0100
0001
1000
0010
1000
0100
1000
0001
0100
0001
1000
0100
,
1000
0001
0100
0001
1000
0010
1000
0100
0010
0001
0010
0100
1000
0001
0100
0001
,
1000
0010
1000
0001
0100
0001
0010
0100
1000
0100
0010
0001
1000
0001
0100
0001
,
1000
0010
1000
0100
1000
0010
1000
0001
0100
0001
0010
0100
1000
0100
0010
0001
,
0010
0100
0010
0100
0010
0100
0010
0100
0010
0100
0010
0100
0010
0100
0010
0100
,
0010
0100
0010
0100
0010
0100
0010
0100
0010
0001
1000
0001
1000
0001
1000
0001
,
1000
0001
1000
0001
1000
0001
1000
0001
1000
0001
1000
0001
1000
0001
1000
0001
,
0220
0000
0000
0330
;
